#TITLE:Eurospeed;
#SUBTITLE:;
#ARTIST:証聲;
#TITLETRANSLIT:;
#SUBTITLETRANSLIT:;
#ARTISTTRANSLIT:;
#CREDIT:;
#BANNER:Eurospeed_logo.jpg;
#BACKGROUND:Eurospeed_bg.jpg;
#LYRICSPATH:;
#CDTITLE:Lan.png;
#MUSIC:Eurospeed.mp3;
#OFFSET:-0.080;
#SAMPLESTART:100.000;
#SAMPLELENGTH:12.000;
#SELECTABLE:YES;
#BPMS:0.000=148.000;
#STOPS:;
#BGCHANGES:;
// cache tags:
#FIRSTBEAT:4.000;
#LASTBEAT:308.000;
#SONGFILENAME:Songs/lan sky/Eurospeed/Eurospeed.sm;
#HASMUSIC:1;
#HASBANNER:1;
#MUSICLENGTH:125.638;
// end cache tags

//---------------dance-single - sky----------------
#NOTES:
     dance-single:
     sky:
     Hard:
     10:
     1.000,1.000,1.000,0.080,1.000,776.000,184.000,10.000,0.000,9.000:

0000
0000
0000
0000
,
0200
0000
0000
0000
,
1302
1000
0000
0010
0010
0000
0100
0100
0000
1000
1000
0000
1010
0000
0100
0000
,
2013
0000
0000
0000
,
3021
0000
0000
0000
,
0000
0000
0000
0000
,
0231
0001
0000
0010
0010
0000
1000
1000
0000
0010
0010
0000
0001
0000
0010
0000
,
2301
0000
0000
0000
,
3021
0000
0000
0000
,
2130
0000
0000
0000
,
3001
0001
0000
0010
0010
0000
0100
0100
0000
1000
1000
0000
0110
0000
0011
0000
,
1100
0000
0011
0000
0010
0100
0010
0100
0000
1000
1000
0000
0101
0000
0110
0000
,
0000
0000
1100
0000
0001
0010
0001
0010
0000
0100
0100
0000
1010
0000
0110
0000
,
0000
0000
1001
0000
0100
1000
0100
1000
0000
0010
0010
0000
0011
0000
0110
0000
,
1000
1000
0000
0100
0100
0000
0010
0010
0000
0001
0001
0000
0110
0000
1100
0000
,
0011
1000
0010
0100
0001
1000
0010
1000
0100
0001
0010
1000
0100
1000
0010
0001
,
0010
0100
0001
0100
1000
0010
0100
0001
1000
0001
0100
0010
1000
0010
0100
0001
,
0010
0000
1000
0000
0010
0000
0100
0000
0001
0000
1000
0000
0010
0000
0001
0000
1000
0100
0010
0001
1000
0100
0010
0001
0001
0010
0100
1000
0001
0010
0100
1000
,
0011
0000
0010
0010
1100
0000
0100
0100
1001
0000
1000
1000
0110
0000
0010
0010
,
0101
0000
0100
0100
1010
0000
0010
0010
1001
0000
1000
1000
0101
0000
0001
0001
,
1010
0000
1000
1000
0101
0000
0001
0001
0110
0000
0010
0010
1001
0000
1000
1000
,
0101
0000
0001
0001
0110
0000
0010
0010
0100
0000
0000
0100
1000
0100
0010
0001
,
1001
0000
0010
0000
1000
0100
0000
0000
1010
0000
0000
0001
1000
0001
0000
0000
,
1000
0000
0010
0000
1000
0100
0000
0000
1001
0000
0000
0010
1000
0010
0000
0000
,
1000
0000
0010
0000
1000
0001
0000
0000
1100
0000
0000
0001
1000
0001
0000
0000
,
1000
0000
0010
0000
1000
0100
0000
0000
1001
0000
0000
0010
1000
0010
0000
0000
,
1000
0000
0100
0000
1000
0001
0000
0000
1010
0000
0000
0001
1000
0001
0000
0000
,
1000
0000
0010
0000
1000
0001
0000
0000
1100
0000
0000
0010
1000
0010
0000
0000
,
1000
0000
0010
0000
1000
0001
0000
0000
1100
0000
0010
0000
1010
0000
0000
0000
,
1000
0000
0100
0000
1000
0001
0000
0000
1010
0000
0000
0001
1000
0001
0000
0000
,
0011
0000
0010
0010
1100
0000
0100
0100
1001
0000
1000
1000
0110
0000
0010
0010
,
0101
0000
0100
0100
1010
0000
0010
0010
1001
0000
1000
1000
0101
0000
0001
0001
,
1010
0000
1000
1000
0101
0000
0001
0001
0110
0000
0010
0010
1001
0000
1000
1000
,
0101
0000
0000
0000
0001
0000
0001
0000
0110
0000
0000
0000
0010
0000
0010
0000
1000
0100
0010
0001
1000
0100
0010
0001
0001
0010
0100
1000
0001
0010
0100
1000
,
0011
0010
0000
1000
1001
0000
0010
0010
0001
0100
0100
0000
1001
0000
0100
0000
,
0011
0010
1100
0100
0110
0010
1001
1000
,
0011
0010
0101
0100
1010
0010
1100
0100
,
1001
0001
0110
0010
1100
0100
0011
0001
,
1010
0010
0000
0001
1001
0000
0010
0010
1000
0100
0100
0000
1001
0000
0100
0000
,
1010
0001
0110
0010
0101
0001
1010
0010
,
1100
0100
0011
0001
1001
1000
0110
0100
,
1010
0000
0010
0000
0101
0000
0001
0000
1010
0000
1000
0000
0101
0000
0001
0001
,
1000
0000
0101
0000
1000
0010
0100
0000
1001
0000
0100
0010
1000
0010
0100
0000
,
1000
0000
0110
0000
1000
0001
0100
0000
1010
0000
0100
0001
1000
0001
0100
0000
,
0010
0000
0101
0000
0010
0000
1001
0000
0110
0000
0001
1000
0010
1000
0001
0000
,
0010
0000
1001
0000
0010
0100
0001
0000
1010
0000
0001
1000
0010
1000
0001
0000
,
1000
0000
0011
0000
1000
0100
0001
0000
1010
0000
0001
0100
1000
0100
0001
0000
,
1000
0000
0101
0000
1000
0010
0001
0000
1100
0000
0001
0010
1000
0010
0001
0000
,
0100
0000
1010
0000
0100
0001
0010
0000
1100
0000
0010
0001
0100
0001
0010
0000
,
0100
0000
0011
0000
0100
1000
0010
0000
0101
0000
0010
1000
0100
1000
0010
0000
,
1000
0000
0101
0000
1000
0010
0100
0000
1001
0000
0100
0010
1000
0010
0100
0000
,
1000
0000
0110
0000
1000
0001
0100
0000
1010
0000
0100
0001
1000
0001
0100
0000
,
0010
0000
0101
0000
0010
0000
1001
0000
0110
0000
0001
1000
0010
1000
0001
0000
,
0010
0000
1001
0000
0010
0100
0001
0000
1010
0000
0001
1000
0010
1000
0001
0000
,
1000
0000
0011
0000
1000
0100
0001
0000
1010
0000
0001
0100
1000
0100
0001
0000
,
1000
0000
0101
0000
1000
0010
0001
0000
1100
0000
0001
0010
1000
0010
0001
0000
,
0100
0000
1010
0000
0100
0001
0010
0000
1100
0000
0010
0001
0100
0001
0010
0000
,
0100
0000
0000
0000
0011
0000
0000
0000
0100
0000
1000
0000
0010
0000
0000
0000
0001
0010
0100
1000
0001
0010
0100
1000
1000
0100
0010
0001
1000
0100
0010
0001
,
1100
0010
0100
0010
1001
0010
1000
0010
1100
0001
0100
0010
1100
0001
0010
0100
,
1000
0010
0100
0001
1010
1000
0010
0100
1001
0100
0010
0100
1001
0100
0010
0100
,
1010
0001
0010
0100
1010
0001
0010
1000
1001
0100
0001
1000
1010
0001
0100
0010
,
1100
0001
1000
0010
1001
0100
0010
0100
1001
0000
0000
0000
0110
0000
0110
0000
,
0011
0100
1000
0010
0101
0010
1000
0100
0011
0010
0001
0100
0011
1000
0100
1000
,
0101
0010
0001
0100
0011
1000
0100
1000
0101
0010
0001
0100
1001
0010
0100
1000
,
0011
0100
0001
0100
1001
0010
1000
0010
0101
0010
0001
0100
1001
0010
0100
1000
,
0011
0100
0001
1000
0011
0100
1000
0010
0110
0000
0000
0110
0100
0110
0100
0110
,
1101
0001
0100
0010
1010
0000
0101
0001
1000
0010
0110
0000
1001
0000
0110
0000
,
1001
0000
0110
0000
1000
0001
0100
0000
1010
0000
0100
0001
1000
0001
0100
0000
,
0001
0000
1010
0000
0001
0100
0010
0000
1001
0000
0010
1000
0001
1000
0010
0000
,
0001
0000
1010
0000
0001
0100
0010
0000
1001
0000
0010
0100
0001
0100
0010
0000
,
1010
0010
0001
0100
1100
0000
0011
0010
1000
0100
0101
0000
1010
0000
0011
0000
,
1010
0000
0101
0000
1000
0010
0001
0000
1100
0000
0001
0010
1000
0010
0001
0000
,
1000
0000
1010
0000
1000
0001
1000
0000
1100
0000
1000
0010
1000
0010
1000
0000
,
1000
0000
0000
0000
1001
0000
0000
0000
1000
0000
0010
0000
1000
0000
0000
0000
1000
0100
0010
0001
0001
0010
0100
1000
1000
0100
0010
0001
0001
0010
0100
1000
,
0022
0000
0000
0000
,
0000
0000
0000
0000
,
0000
0000
0000
0000
,
0033
0000
0000
0000
;
